Green Day - Father of All (2020) [24bit Hi-Res]

Size 316.2 MB   11 seeders     Added 1 week ago

 Quality-Lossless
Release-2020
Duration-00:26:12
File Size-331 MB
Genre-Rock
Cover Size-1280px
----------------------------------------------------------------------------------------------  Analyzed: Father of All... / Artist: Green Day
---------------------------------------------------------------------------------------------- DR	Peak	RMS	Duration	Title [codec] ----------------------------------------------------------------------------------------------  DR6 -0.00 dB -7.44 dB	2:31	01 - Father of All... [flac]  DR5 -0.00 dB -6.13 dB	1:52	02 - Fire, Ready, Aim [flac]  DR7 -0.00 dB -8.47 dB	2:50	03 - Oh Yeah! [flac]  DR6 -0.00 dB -7.95 dB	2:39	04 - Meet Me on the Roof [flac]  DR6 -0.00 dB -8.36 dB	3:43	05 - I Was a Teenage Teenager [flac]  DR6 -0.00 dB -8.62 dB	2:10	06 - Stab You in the Heart [flac]  DR7 -0.00 dB -8.49 dB	1:54	07 - Sugar Youth [flac]  DR6 -0.00 dB -9.30 dB	3:06	08 - Junkies on a High [flac]  DR6 -0.00 dB -8.45 dB	2:08	09 - Take the Money and Crawl [flac]  DR6 -0.00 dB -9.17 dB	3:16	10 - Graffitia [flac] ----------------------------------------------------------------------------------------------  Number of files: 10
 Official DR value: DR6
  Sampling rate: 44100 Hz
 Average bitrate: 1694kbs  Bits per sample: 24 bit
 

udp://tracker.piratepublic.com:1337/announce
udp://tracker.pirateparty.gr:6969/announce
udp://tracker.coppersurfer.tk:6969/announce
udp://tracker.leechers-paradise.org:6969/announce
udp://9.rarbg.com:2710/announce
http://p4p.arenabg.com:1337/announce
http://explodie.org:6969/announce
udp://tracker.opentrackr.org:1337/announce
udp://exodus.desync.com:6969/announce
udp://tracker.leechers-paradise.org:6969/announce
udp://tracker.zer0day.to:1337/announce
udp://open.demonii.si:1337/announce
udp://exodus.desync.com:6969/announce
udp://tracker.iamhansen.xyz:2000/announce
udp://tracker.zer0day.to:1337/announce
udp://tracker.leechers-paradise.org:6969/announce
udp://coppersurfer.tk:6969/announce

4000 symbols left
Hash 28dc9e8cbab5e364dfce79184dff70339579f18b